About 14 results found. (Query 0.10000 seconds)
. ��������� ����� ��� ���������� � ��� 5,223 19,485 [SERIAL] ������ / The Boys / �����: 1 /... 28-���-22 15:04 by sem�n_52 ����� � ������� 3GP ��� ��������� 1,840 5,153 [MULT] ����������� ���� � ��� ������ /... 09-���-22 05:30 by jinn81 ���� ������� ���. ����. ��������� ������� ����� ������� ���������� ������ � ������� " ����� ��� ��������� ��������� " T.O.X.A [ 1 .. 11 , 12 ] 330 2022-07-18 10:15 sem�n_52 ���������� ������ ������ !
R Rahman,ayakanth, Vikram, 3gp videos, tamil mp3,tamil compressed mp3,tamil vedio,tamil mp3,tamil compressed mp3,tamil 3gp,hindi mp3,tamil compressed mp3,tamil,tamil compressed mp3,tamil compresstelgu mp3 4778 days ago Scott Drake Enterprises scottdrake.com Scott Drake Enterprises 552 days ago Mustang Service Center mustangservicecenter.com The Mustang Service and parts Center is your one stop for cl ic Ford Mustang, Falcon and Cougar parts and service 818-765-1196. 552...
For now, we support a wide range of videos including MP4, mov and 3gp videos. We are excited and thrilled with this announcement after months of hard work. Expose Privacy and Copyright concerns in Videos Check your Videos for Privacy and Copyright concerns.
.): До 57 Разъем ЗУ USB Type-C Функция беспроводной зарядки Нет Функция быстрой зарядки Да Особенности зарядки Быстрая зарядка 15 Вт Дополнительная информация Серия Samsung Galaxy A12 (2021) Версия 2021 Комплектация Смартфон; USB кабель; Зарядное устройство; Скрепка для извлечения SIM; Руководство пользователя Особенности телефона Форматы воспроизведения видео: MP4, M4V, 3GP, 3G2, WMV, ASF, AVI, FLV, MKV, WEBM; Форматы аудио: MP3, M4A, 3GA, AAC, OGG, OGA, WAV, WMA, AMR, AWB, FLAC, MID,...
TODO: - Use servlet path everywhere, so the war can be renamed - Don ' t override service() 10 years ago ​ i2psnark: More playlist mime types 3 years ago ​ i2psnark: - Rename bad .torrent files instead of deleting them - Add mime type for .xz 7 years ago 3gp = video/3gpp 3gpp = video/3gpp 7z = application/x-7z-compressed ape = audio/x-monkeys-audio avif = image/avif bz2 = application/x-bzip2 cue = application/x-cue dff = audio/x-dsd dmg = application/apple-diskimage dsf =...
With WMP, you can play files that are in MOV , Xvid , AVI , or DivX formats. It also supports WMV , WMA , AAC , and 3GP file formats. Thanks to the latest Windows Media Player update, you no longer need codecs to play a file. Are there any alternatives?
Photos / RAW Photos / Image Formats 3FR AAI AI ART ARW AVI AVS BGR BGRA BGRO BIE BMP BMP2 BMP3 BRF CAL CALS CANVAS CAPTION CIN CIP CLIP CMYK CMYKA CR2 CRW CUR CUT DATA DCM DCR DCX DDS DFONT DJVU DNG DOT DPX DXT1 DXT5 EPDF EPI EPS EPS2 EPS3 EPSF EPSI EPT EPT2 EPT3 ERF EXR FAX FILE FITS FRACTAL FTP FTS G3 G4 GIF GIF87 GRADIENT GRAY GROUP4 GV H HALD HDR HEIC HISTOGRAM HRZ HTM HTML HTTP HTTPS ICB ICO ICON IIQ INFO INLINE IPL ISOBRL ISOBRL6 JBG JBIG JNG JNX JPE JPEG JPG JPS JSON K25 KDC LABEL M2V M4V MAC MAGICK...
xt=urn:btih:91b838c8091d463e8e2089deef72f4be6ed6d74d : B & G-Our entertainments.3gp (4.75 MB) magnet:?xt=urn:btih:2c180cc5bf6aebabaa17d427ca7d07b8339f1e8e : то, что 11летние вытворяют в затишье!.avi (9.03 MB) magnet:?
Rugby Bundesliga 1st Battalion, 1st Marines 1st Division (South Sudan) 1st GAM: Amai Yuwaku 1st Information Operations Command (Land) 1st MMC – Blagoevgrad 1st Nepalese Constituent Assembly 2 Military Police Regiment 2 Million Bikers to DC A228 road A259 road 2C-T-8 2I/Borisov 2nd Battle of Kidal 2nd Czech Republic Hockey League 2nd Light Armored Reconnaissance Battalion 2nd MMC – Burgas 2R (group) 3rd Infantry Division (United States) 3 (company) 3 Suisses A338 road 3-D Film Preservation Fund 3-D Secure...
First is … 540M 2 0 / 0 1 2019-02-03 abandoned Apps Wondershare Video Converter Ultimate 10.2.6.168 + Patch Wondershare Video Converter Ultimate is an application designed to help you turn audio and video files (e.g. 3GP, M4A, RM, MOV, DA … (1) 108M 1 0 / 0 106 2018-06-22 abandoned Apps ubuntu-18.04-desktop-amd64.iso SHA256: A55353D837CBF7BC006CF49EEFF05AE5044E757498E30643A9199B9A25BC9A34 http://releases.ubuntu.com/18.04/SHA256SUMS 1.8G 1 0 / 0 5 2018-06-13 abandoned Apps...
Here is the pertinent data from ffprobe on the 25.6 MB introduction: Input #0, mov,mp4,m4a,3gp,3g2,mj2, from 'intro.mp4': Duration: 00:00:18.54, start: 0.000000, bitrate: 11342 kb/s Stream #0:0(eng): Video: h264 (Constrained Baseline) (avc1 / 0x31637661), yuv420p, 1280x720, 11378 kb/s, SAR 1:1 DAR 16:9, 24.08 fps, 24.17 tbr, 90k tbn, 180k tbc (default) Stream #0:1(eng): Audio: aac (LC) (mp4a / 0x6134706D), 48000 Hz, stereo, fltp, 96 kb/s (default) Here is the pertinent data from ffprobe on...
. < ref name=MP4 > Template:Cite web < /ref > Specifically, Flash Player will work with video compressed in H.264 (MPEG-4 Part 10), audio compressed using AAC (MPEG-4 Part 3), the F4V, MP4 (MPEG-4 Part 14), M4V, M4A, 3GP and MOV multimedia container formats , 3GPP Timed Text specification (MPEG-4 Part 17), which is a standardized subtitle format and partial parsing capability for the 'ilst' atom, which is the ID3 equivalent iTunes uses to store metadata .
lK.. 04c0 1c f4 e8 51 cd 76 0e 14 30 fc 34 7d fa 74 6d 00 e9 6a fb f6 ed 57 63 a6 42 1a 02 0f e6 47 f6 1a ...Q.v..0.4}.tm..j...Wc.B....G.. 04e0 02 05 85 17 98 4d 98 96 37 df 7c b3 1f bc 0c c6 5e 23 22 22 d0 ab 17 03 2f c6 80 c2 99 33 67 50 .....M..7.|.....^#""..../....3gP 0500 64 15 83 53 30 cc 5d bb 76 dd 8a 5d 05 69 08 4c 95 49 0d 14 14 9e 64 36 66 5a 5e 7c f1 c5 9e 28 d..S0.].v..].i.L.I....d6fZ^|...( 0520 ec 41 f8 f0 32 98 c8 c3 c3 66 4c 28 5c bc 78 51 ec 33 68 86 00 05 43...
No information is available for this page.